<?xml version="1.0" standalone="no"?>
<!DOCTYPE svg PUBLIC "-//W3C//DTD SVG 1.1//EN" "http://www.w3.org/Graphics/SVG/1.1/DTD/svg11.dtd" >
<svg xmlns="http://www.w3.org/2000/svg">
<metadata></metadata>
<defs>
<font id="helveticaneueregular" horiz-adv-x="1024" >
<font-face units-per-em="2048" ascent="1638" descent="-410" />
<missing-glyph horiz-adv-x="569" />
<glyph horiz-adv-x="2048" />
<glyph horiz-adv-x="2048" />
<glyph unicode="&#xd;" horiz-adv-x="569" />
<glyph unicode=" "  horiz-adv-x="569" />
<glyph unicode="&#x09;" horiz-adv-x="569" />
<glyph unicode="&#xa0;" horiz-adv-x="569" />
<glyph unicode="!" horiz-adv-x="378" d="M170 0v201h41v-201h-41zM170 373v1089h41v-1089h-41z" />
<glyph unicode="&#x22;" horiz-adv-x="569" d="M150 1001v461h40v-461h-40zM379 1001v461h41v-461h-41z" />
<glyph unicode="#" horiz-adv-x="1138" d="M72 469v41h266l49 362h-258v41h268l64 480h41l-64 -480h350l64 480h41l-64 -480h238v-41h-248l-49 -362h240v-41h-248l-64 -469h-41l64 469h-352l-64 -469h-41l64 469h-256zM379 510h350l49 362h-350z" />
<glyph unicode="$" horiz-adv-x="1138" d="M12 485h41q0 -242 131 -359.5t359 -117.5v729q-172 39 -262.5 71t-158 105.5t-67.5 206.5q0 197 143.5 287t344.5 90v88h41v-90q219 0 353 -108.5t134 -333.5h-41q0 207 -122 304t-324 97v-684l16 -4q213 -55 293 -83t143.5 -104.5t63.5 -220.5q0 -193 -153.5 -293 t-362.5 -100v-180h-41v182q-242 0 -386.5 131t-144.5 387zM96 1120q0 -164 108.5 -226.5t338.5 -113.5v676q-180 0 -313.5 -80t-133.5 -256zM584 6q195 0 335 89t140 265q0 182 -114 246t-361 121v-721z" />
<glyph unicode="%" horiz-adv-x="1402" d="M43 1063q0 160 82 257t229 97q152 0 235 -97t83 -255q0 -147 -85 -247.5t-233 -100.5q-152 0 -231.5 99t-79.5 247zM84 1063q0 -133 68.5 -219t201.5 -86q131 0 204 87t73 218q0 145 -68.5 229t-208.5 84q-135 0 -202.5 -85t-67.5 -228zM180 -70l975 1532h47l-975 -1532 h-47zM731 322q0 160 82 257t229 97q152 0 235 -97.5t83 -254.5q0 -147 -85 -248t-233 -101q-152 0 -231.5 99.5t-79.5 247.5zM772 322q0 -133 68.5 -219.5t201.5 -86.5q131 0 204 87t73 219q0 145 -68.5 229t-208.5 84q-135 0 -202.5 -85t-67.5 -228z" />
<glyph unicode="&#x26;" horiz-adv-x="1175" d="M90 328q0 186 124 287.5t269 191.5q-70 90 -143.5 194.5t-73.5 188.5q0 133 89 202.5t210 69.5q127 0 213 -73.5t86 -198.5q0 -123 -68.5 -189.5t-252.5 -203.5l385 -488q20 47 34.5 112.5t14.5 145.5h41q0 -156 -62 -295l215 -272h-53l-182 231q-66 -121 -173.5 -193.5 t-254.5 -72.5q-164 0 -291 100.5t-127 262.5zM131 328q0 -150 111.5 -236t265.5 -86q141 0 240.5 69.5t160.5 194.5l-401 504q-190 -121 -283.5 -209t-93.5 -237zM307 1194q0 -95 211 -367q150 102 227.5 177t77.5 186q0 106 -73.5 168.5t-182.5 62.5q-111 0 -185.5 -61.5 t-74.5 -165.5z" />
<glyph unicode="'" horiz-adv-x="342" d="M152 1001v461h41v-461h-41z" />
<glyph unicode="(" horiz-adv-x="454" d="M139 578q0 240 60.5 471t177.5 448h41q-115 -215 -176.5 -446.5t-61.5 -472.5q0 -504 240 -940h-41q-125 242 -182.5 460.5t-57.5 479.5z" />
<glyph unicode=")" horiz-adv-x="454" d="M35 1497h41q125 -242 182 -461t57 -479q0 -240 -60 -471t-177 -448h-41q115 215 176 446t61 473q0 504 -239 940z" />
<glyph unicode="*" horiz-adv-x="720" d="M66 1225l12 39l258 -88v286h41v-286l270 88l8 -39l-266 -88l170 -224l-33 -24l-170 221l-172 -213l-32 27l180 213z" />
<glyph unicode="+" horiz-adv-x="1228" d="M98 498v41h496v497h41v-497h495v-41h-495v-498h-41v498h-496z" />
<glyph unicode="," horiz-adv-x="569" d="M215 -203q49 49 49 203v201h41v-201q0 -98 -19.5 -153.5t-70.5 -90.5v41z" />
<glyph unicode="-" horiz-adv-x="681" d="M162 528v41h358v-41h-358z" />
<glyph unicode="." horiz-adv-x="569" d="M264 0v201h41v-201h-41z" />
<glyph unicode="/" horiz-adv-x="681" d="M-14 -35l669 1532h41l-669 -1532h-41z" />
<glyph unicode="0" horiz-adv-x="1138" d="M43 696q0 303 125 512t401 209q274 0 400.5 -211t126.5 -510q0 -303 -125.5 -512t-401.5 -209q-274 0 -400 211t-126 510zM84 696q0 -281 111.5 -480.5t373.5 -199.5q260 0 373 201t113 479q0 281 -112 480.5t-374 199.5q-260 0 -372.5 -200.5t-112.5 -479.5z" />
<glyph unicode="1" horiz-adv-x="1138" d="M236 1094v41q123 41 200.5 97t169.5 161h45v-1393h-41v1339q-63 -86 -165.5 -150.5t-208.5 -94.5z" />
<glyph unicode="2" horiz-adv-x="1138" d="M113 0q0 111 57 195t145 154.5t291 210.5t285 254t82 228q0 158 -107.5 246t-279.5 88q-211 0 -309.5 -117.5t-98.5 -322.5h-41q0 231 115 356t334 125q188 0 308 -96t120 -279q0 -121 -81 -239.5t-281.5 -259t-285.5 -205t-143.5 -138t-68.5 -159.5h897v-41h-938z" />
<glyph unicode="3" horiz-adv-x="1138" d="M82 471h41q0 -219 122 -337t343 -118q178 0 304 98.5t126 270.5q0 170 -109.5 257t-290.5 87h-100v41h100q158 0 265.5 72.5t107.5 232.5q0 154 -115.5 227.5t-279.5 73.5q-205 0 -319.5 -104.5t-114.5 -310.5h-41q0 223 125 339.5t350 116.5q184 0 310 -84t126 -258 q0 -141 -83 -226t-216 -97q137 -16 231.5 -107.5t94.5 -259.5q0 -186 -137.5 -298t-333.5 -112q-238 0 -372 130.5t-134 365.5z" />
<glyph unicode="4" horiz-adv-x="1138" d="M70 362v50l696 981h51v-990h252v-41h-252v-362h-41v362h-706zM111 403h665v932z" />
<glyph unicode="5" horiz-adv-x="1138" d="M76 446h41q0 -203 117.5 -316.5t324.5 -113.5q203 0 321.5 121t118.5 326q0 195 -120.5 317.5t-319.5 122.5q-127 0 -229.5 -54t-159.5 -159h-51l149 703h715v-41h-682l-127 -596q59 92 159.5 140t225.5 48q215 0 348 -135t133 -346q0 -219 -132 -353.5t-349 -134.5 q-221 0 -352 125t-131 346z" />
<glyph unicode="6" horiz-adv-x="1138" d="M80 657q0 311 122 535.5t402 224.5q176 0 292 -99t138 -253h-41q-37 170 -147.5 240.5t-243.5 70.5q-193 0 -300 -121.5t-145 -296t-38 -370.5q35 150 164 250t295 100q190 0 335.5 -136t145.5 -345q0 -205 -142.5 -343.5t-338.5 -138.5q-135 0 -241 63.5t-163 152 t-75.5 201t-18.5 265.5zM137 457q0 -182 129 -311.5t312 -129.5q182 0 311 129t129 312q0 182 -129 311t-311 129t-311.5 -129t-129.5 -311z" />
<glyph unicode="7" horiz-adv-x="1138" d="M125 1352v41h889v-56q-307 -307 -468 -624.5t-161 -712.5h-41q0 391 161 721t464 631h-844z" />
<glyph unicode="8" horiz-adv-x="1138" d="M63 389q0 160 95.5 259.5t261.5 115.5q-125 18 -206 100t-81 201q0 178 120 265t316 87q195 0 316 -87t121 -265q0 -119 -81 -200t-206 -97q164 -18 260 -118.5t96 -260.5q0 -207 -142 -310.5t-364 -103.5q-219 0 -362.5 104.5t-143.5 309.5zM104 389 q0 -188 132.5 -280.5t332.5 -92.5q203 0 334 91.5t131 281.5q0 186 -130 269t-335 83q-207 0 -336 -81.5t-129 -270.5zM174 1065q0 -139 120 -211t275 -72q158 0 277 72t119 211q0 164 -113 237.5t-283 73.5q-172 0 -283.5 -72.5t-111.5 -238.5z" />
<glyph unicode="9" horiz-adv-x="1138" d="M80 936q0 205 142.5 343t338.5 138q135 0 240.5 -63.5t163 -151.5t77 -199.5t19.5 -267.5q0 -311 -123 -535.5t-403 -224.5q-176 0 -292 99.5t-139 253.5h41q37 -170 147.5 -241t244.5 -71q193 0 300 122t145 296t38 371q-35 -150 -164 -250t-295 -100q-190 0 -335.5 136 t-145.5 345zM121 936q0 -182 129 -311t311 -129t311 129t129 311t-129 311t-311 129t-311 -129t-129 -311z" />
<glyph unicode=":" horiz-adv-x="569" d="M264 0v201h41v-201h-41zM264 852v201h41v-201h-41z" />
<glyph unicode=";" horiz-adv-x="569" d="M215 -203q49 49 49 203v201h41v-201q0 -98 -19.5 -153.5t-70.5 -90.5v41zM264 852v201h41v-201h-41z" />
<glyph unicode="&#x3c;" horiz-adv-x="1228" d="M94 494v49l1041 510v-43l-1004 -492l1004 -491v-43z" />
<glyph unicode="=" horiz-adv-x="1228" d="M98 299v41h1032v-41h-1032zM98 696v41h1032v-41h-1032z" />
<glyph unicode="&#x3e;" horiz-adv-x="1228" d="M94 -16v43l1004 491l-1004 492v43l1041 -510v-49z" />
<glyph unicode="?" d="M72 1010q0 221 115.5 354t328.5 133q176 0 290 -90t114 -250q0 -133 -53.5 -209t-147.5 -157q-117 -113 -160 -196t-43 -222h-41q0 139 41 229t128 174t144 139q90 111 91 242q0 141 -100.5 220t-262.5 79q-199 0 -301 -119.5t-102 -326.5h-41zM475 0v201h41v-201h-41z " />
<glyph unicode="@" horiz-adv-x="1638" d="M117 723q0 315 216 525t525 210q283 0 473.5 -169t190.5 -447q0 -227 -142.5 -399.5t-300.5 -172.5q-55 0 -89 30t-34 77q0 14 2 22q-53 -70 -127.5 -99.5t-154.5 -29.5q-119 0 -199 86t-80 211q0 209 140.5 400.5t345.5 191.5q98 0 176 -47t104 -127l54 135h43 l-228 -590q-14 -39 -24.5 -76.5t-10.5 -62.5q0 -80 86 -80q135 0 266.5 159t131.5 372q0 254 -175.5 414.5t-447.5 160.5q-297 0 -498.5 -201.5t-201.5 -492.5q0 -336 200.5 -521.5t499.5 -185.5q180 0 337 89.5t257 234.5h47q-100 -164 -275 -264.5t-366 -100.5 q-303 0 -522 190.5t-219 557.5zM438 567q0 -111 68.5 -183.5t177.5 -72.5q96 0 180 55.5t135 190.5l146 377q-27 98 -101.5 141t-169.5 43q-182 0 -309 -181t-127 -370z" />
<glyph unicode="A" horiz-adv-x="1177" d="M-25 0l594 1462h54l577 -1462h-45l-192 481h-746l-194 -481h-48zM233 522h713l-348 899z" />
<glyph unicode="B" horiz-adv-x="1251" d="M96 0v1462h629q180 0 296 -94t116 -270q0 -135 -89.5 -234.5t-220.5 -99.5q147 -4 251 -103.5t104 -263.5q0 -193 -132 -295t-350 -102h-604zM137 41h582q186 0 304 90t118 264q0 178 -120 262t-296 84h-588v-700zM137 782h588q156 0 263.5 82t107.5 234 q0 158 -103.5 240.5t-267.5 82.5h-588v-639z" />
<glyph unicode="C" horiz-adv-x="1402" d="M51 719q0 309 171 543.5t517 234.5q264 0 424 -155.5t160 -317.5h-41q-14 170 -163.5 301t-379.5 131q-328 0 -487.5 -230.5t-159.5 -506.5q0 -295 168 -504t453 -209q254 0 410.5 156.5t191.5 410.5h41q-39 -276 -206 -442t-437 -166q-293 0 -477.5 211t-184.5 543z" />
<glyph unicode="D" horiz-adv-x="1327" d="M111 0v1462h512q258 0 440 -169t182 -562q0 -367 -197.5 -549t-488.5 -182h-448zM152 41h417q276 0 455.5 176t179.5 514q0 375 -169 532.5t-423 157.5h-460v-1380z" />
<glyph unicode="E" horiz-adv-x="1099" d="M111 0v1462h970v-41h-929v-639h874v-41h-874v-700h938v-41h-979z" />
<glyph unicode="F" horiz-adv-x="985" d="M111 0v1462h901v-41h-860v-639h778v-41h-778v-741h-41z" />
<glyph unicode="G" horiz-adv-x="1478" d="M66 731q0 332 185 549t501 217q244 0 407.5 -133t198.5 -358h-41q-39 207 -189.5 328.5t-375.5 121.5q-295 0 -470.5 -208t-175.5 -517q0 -313 170 -519t482 -206q246 0 413.5 160t167.5 401v76h-567v41h608v-686h-41v364q-59 -184 -216.5 -290.5t-370.5 -106.5 q-328 0 -507 216t-179 550z" />
<glyph unicode="H" horiz-adv-x="1327" d="M111 0v1462h41v-680h1024v680h41v-1462h-41v741h-1024v-741h-41z" />
<glyph unicode="I" horiz-adv-x="262" d="M111 0v1462h41v-1462h-41z" />
<glyph unicode="J" horiz-adv-x="948" d="M37 365v88h41v-88q0 -358 348 -359q184 0 272 90t88 316v1050h41v-1081q0 -195 -95 -305.5t-306 -110.5q-197 0 -293 109.5t-96 290.5z" />
<glyph unicode="K" horiz-adv-x="1214" d="M111 0v1462h41v-889l1013 889h62l-707 -622l748 -840h-56l-725 815l-335 -297v-518h-41z" />
<glyph unicode="L" horiz-adv-x="985" d="M111 0v1462h41v-1421h854v-41h-895z" />
<glyph unicode="M" horiz-adv-x="1597" d="M111 0v1462h67l619 -1409l622 1409h68v-1462h-41v1411l-625 -1411h-45l-620 1411l-4 -1411h-41z" />
<glyph unicode="N" horiz-adv-x="1327" d="M111 0v1462h61l999 -1411l5 1411h41v-1462h-62l-999 1411l-4 -1411h-41z" />
<glyph unicode="O" horiz-adv-x="1476" d="M66 731q0 328 178 547t495 219t495.5 -219t178.5 -547t-178 -547t-496 -219q-317 0 -495 219t-178 547zM106 731q0 -322 171 -523.5t462 -201.5t462 202t171 523q0 322 -171 523.5t-462 201.5t-462 -201.5t-171 -523.5z" />
<glyph unicode="P" horiz-adv-x="1175" d="M111 0v1462h591q211 0 328 -102.5t117 -296.5q0 -188 -128 -292.5t-337 -104.5h-530v-666h-41zM152 707h550q176 0 290 95t114 261q0 358 -404 358h-550v-714z" />
<glyph unicode="Q" horiz-adv-x="1476" d="M66 731q0 328 178 547t495 219t495.5 -219t178.5 -547q0 -178 -54 -328.5t-163 -257.5l236 -161l-21 -29l-242 164q-84 -74 -191.5 -114t-238.5 -40q-317 0 -495 219t-178 547zM106 731q0 -322 171.5 -523.5t461.5 -201.5q119 0 216.5 35t177.5 102l-259 176l23 33 l264 -182q100 96 155.5 240.5t55.5 320.5q0 322 -171 523.5t-462 201.5t-462 -201.5t-171 -523.5z" />
<glyph unicode="R" horiz-adv-x="1251" d="M111 0v1462h598q446 0 446 -375q0 -145 -81 -244.5t-232 -131.5q174 -27 231 -122t57 -288q0 -96 7 -183t28 -118h-45q-16 41 -23 128t-7 179q0 199 -76 289t-312 90h-550v-686h-41zM152 727h546q176 0 296 91t120 274q0 160 -95 244.5t-300 84.5h-567v-694z" />
<glyph unicode="S" horiz-adv-x="1251" d="M70 485h41q0 -250 140 -364.5t390 -114.5q195 0 335 89t140 265q0 190 -113.5 248t-356.5 116t-388 114.5t-145 281.5q0 199 146.5 288t352.5 89q233 0 374.5 -106.5t141.5 -337.5h-41q0 211 -129 307t-346 96q-186 0 -322 -79t-136 -257q0 -205 132 -251t358 -102 t306 -84t143.5 -104.5t63.5 -220.5q0 -193 -153.5 -293t-362.5 -100q-264 0 -417.5 127t-153.5 393z" />
<glyph unicode="T" d="M-35 1421v41h1094v-41h-527v-1421h-40v1421h-527z" />
<glyph unicode="U" horiz-adv-x="1294" d="M111 545v917h41v-917q0 -264 122.5 -401.5t372.5 -137.5t373 136.5t123 402.5v917h41v-917q0 -287 -138.5 -433.5t-398.5 -146.5q-537 0 -536 580z" />
<glyph unicode="V" horiz-adv-x="1101" d="M-37 1462h41l553 -1409l541 1409h41l-557 -1462h-45z" />
<glyph unicode="W" horiz-adv-x="1781" d="M-20 1462h43l413 -1411l426 1411h60l428 -1411l411 1411h41l-424 -1462h-55l-430 1411l-426 -1411h-55z" />
<glyph unicode="X" horiz-adv-x="1064" d="M-55 0l563 752l-533 710h54l506 -678l509 678h52l-533 -710l557 -752h-51l-534 719l-539 -719h-51z" />
<glyph unicode="Y" horiz-adv-x="1101" d="M-61 1462h51l561 -803l563 803h49l-592 -846v-616h-41v616z" />
<glyph unicode="Z" d="M-39 0v55l1022 1366h-965v41h1006v-55l-1022 -1366h1038v-41h-1079z" />
<glyph unicode="[" horiz-adv-x="454" d="M197 -362v1859h231v-41h-190v-1778h190v-40h-231z" />
<glyph unicode="\" horiz-adv-x="681" d="M-14 1497h41l669 -1532h-41z" />
<glyph unicode="]" horiz-adv-x="454" d="M27 -322h190v1778h-190v41h231v-1859h-231v40z" />
<glyph unicode="^" horiz-adv-x="1228" d="M121 465l473 928h41l473 -928h-41l-453 887l-452 -887h-41z" />
<glyph unicode="_" d="M0 -154h1024v-102h-1024v102z" />
<glyph unicode="`" horiz-adv-x="266" d="M-78 1497h60l256 -295h-31z" />
<glyph unicode="a" horiz-adv-x="985" d="M45 260q0 176 102.5 245.5t260.5 69.5q240 0 325.5 29t85.5 141q0 129 -59.5 210t-247.5 81q-166 0 -263 -81t-97 -228h-41q0 156 105.5 253t295.5 97q156 0 252 -69.5t96 -231.5v-670q0 -39 23.5 -54t60.5 -15h25q16 4 24 4v-41h-30q-88 0 -116 25.5t-28 76.5v138 q-37 -109 -151.5 -187t-270.5 -78q-160 0 -256 74t-96 211zM86 260q0 -102 73.5 -173t233.5 -71q197 0 311.5 121t114.5 287v194q-31 -41 -116 -62t-295 -21q-147 0 -234.5 -58.5t-87.5 -216.5z" />
<glyph unicode="b" horiz-adv-x="1099" d="M113 0v1462h41v-704q41 147 151.5 233t274.5 86q209 0 328.5 -159.5t119.5 -393.5q0 -244 -121 -396.5t-327 -152.5q-158 0 -269.5 87.5t-152.5 232.5l-4 -295h-41zM154 524q0 -215 114.5 -361.5t311.5 -146.5q195 0 301 146.5t106 361.5q0 207 -102.5 359.5 t-304.5 152.5q-195 0 -310.5 -135t-115.5 -377z" />
<glyph unicode="c" d="M63 504q0 246 125 409.5t367 163.5q154 0 266.5 -91t130.5 -253h-41q-23 147 -122 225t-234 78q-231 0 -341 -158.5t-110 -373.5q0 -205 113 -346.5t313 -141.5q160 0 275 94.5t115 247.5h41q-16 -178 -132 -280.5t-299 -102.5q-217 0 -342 150.5t-125 378.5z" />
<glyph unicode="d" horiz-adv-x="1099" d="M57 524q0 233 120 393t329 160q164 0 273.5 -86t148.5 -233l4 704h41v-1462h-41v295q-45 -143 -156.5 -231.5t-269.5 -88.5q-205 0 -327 154t-122 395zM98 524q0 -215 105.5 -361.5t302.5 -146.5q195 0 310.5 147.5t115.5 360.5q0 242 -114.5 377t-311.5 135 q-201 0 -304.5 -153.5t-103.5 -358.5z" />
<glyph unicode="e" d="M51 526q0 252 135.5 401.5t325.5 149.5q229 0 345 -160.5t116 -398.5h-881q0 -229 100.5 -365.5t315.5 -136.5q166 0 275.5 90.5t136.5 258.5h41q-20 -178 -144.5 -284t-304.5 -106q-233 0 -347 150.5t-114 400.5zM92 559h840q0 207 -108.5 342t-307.5 135 q-176 0 -300 -131t-124 -346z" />
<glyph unicode="f" horiz-adv-x="417" d="M-2 1012v41h180v233q0 113 56.5 144.5t150.5 31.5q31 0 49.5 -3t38.5 -5v-41q-51 8 -96 8q-94 0 -126 -33.5t-32 -115.5v-219h227v-41h-227v-1012h-41v1012h-180z" />
<glyph unicode="g" horiz-adv-x="1062" d="M57 561q0 223 119 369.5t334 146.5q147 0 258 -86t141 -219l4 281h41v-1018q0 -211 -113.5 -316.5t-324.5 -105.5q-176 0 -288.5 82t-112.5 250h41q0 -147 100 -219t258 -72q195 0 297 94t102 287v317q-35 -135 -154.5 -215t-262.5 -80q-209 0 -324 144.5t-115 359.5z M98 561q0 -205 103.5 -334t292.5 -129q195 0 306 132t111 331q0 195 -106.5 335t-294.5 140q-195 0 -303.5 -136t-108.5 -339z" />
<glyph unicode="h" d="M113 0v1462h41v-669q35 127 133 205.5t250 78.5q168 0 271 -99t103 -280v-698h-41v692q0 170 -95 257t-238 87q-182 0 -282.5 -126t-100.5 -314v-596h-41z" />
<glyph unicode="i" horiz-adv-x="266" d="M113 0v1053h41v-1053h-41zM113 1255v207h41v-207h-41z" />
<glyph unicode="j" horiz-adv-x="266" d="M-100 -322q131 0 172 29t41 154v1192h41v-1207q0 -133 -58.5 -170.5t-195.5 -37.5v40zM113 1255v207h41v-207h-41z" />
<glyph unicode="k" horiz-adv-x="909" d="M113 0v1462h41v-1013l727 604h59l-483 -402l518 -651h-55l-494 623l-272 -226v-397h-41z" />
<glyph unicode="l" horiz-adv-x="266" d="M113 0v1462h41v-1462h-41z" />
<glyph unicode="m" horiz-adv-x="1593" d="M113 0v1053h41v-260q33 123 126 203.5t214 80.5q125 0 206.5 -63.5t108.5 -182.5q35 111 126 178.5t212 67.5q180 0 257 -100t77 -285v-692h-41v692q0 170 -64.5 257t-228.5 87q-150 0 -240 -107.5t-90 -260.5v-668h-41v676q0 170 -60.5 265t-221.5 95q-152 0 -246 -129 t-94 -311v-596h-41z" />
<glyph unicode="n" d="M113 0v1053h41v-260q35 127 133 205.5t250 78.5q168 0 271 -99t103 -280v-698h-41v692q0 170 -95 257t-238 87q-182 0 -282.5 -126t-100.5 -314v-596h-41z" />
<glyph unicode="o" horiz-adv-x="1062" d="M57 526q0 229 126 390t349 161q221 0 347.5 -160.5t126.5 -390.5q0 -229 -127 -390t-349 -161q-221 0 -347 160t-126 391zM98 526q0 -211 115.5 -360.5t318.5 -149.5t318 148.5t115 361.5q0 209 -116 359.5t-317 150.5q-203 0 -318.5 -149.5t-115.5 -360.5z" />
<glyph unicode="p" horiz-adv-x="1099" d="M113 -362v1415h41v-295q45 143 156.5 231t269.5 88q205 0 326.5 -153.5t121.5 -395.5q0 -233 -120 -393t-328 -160q-164 0 -273.5 86t-148.5 234l-4 -657h-41zM154 528q0 -242 114.5 -377t311.5 -135q201 0 304 153.5t103 358.5q0 215 -105.5 361.5t-301.5 146.5 q-195 0 -310.5 -147.5t-115.5 -360.5z" />
<glyph unicode="q" horiz-adv-x="1099" d="M57 528q0 244 121 396.5t328 152.5q158 0 269.5 -87t152.5 -232l4 295h41v-1415h-41v657q-41 -147 -151.5 -233.5t-274.5 -86.5q-209 0 -329 160t-120 393zM98 528q0 -207 102.5 -359.5t305.5 -152.5q195 0 310.5 135.5t115.5 376.5q0 215 -114.5 361.5t-311.5 146.5 q-195 0 -301.5 -146.5t-106.5 -361.5z" />
<glyph unicode="r" horiz-adv-x="530" d="M113 0v1053h41v-260q35 129 136 206.5t281 77.5v-41q-205 0 -311 -126t-106 -314v-596h-41z" />
<glyph unicode="s" horiz-adv-x="948" d="M61 360h41q0 -174 98.5 -259t286.5 -85q133 0 236.5 61.5t103.5 186.5q0 123 -84 167t-227 80t-193.5 51.5t-135.5 52t-85 198.5q0 102 88.5 183t268.5 81q182 0 281.5 -82t99.5 -254h-41q0 150 -91.5 222.5t-248.5 72.5q-150 0 -233 -61.5t-83 -161.5q0 -76 29 -119 t78 -61.5t127 -40t220 -58t206.5 -99t64.5 -167.5q0 -147 -112.5 -220t-268.5 -73q-213 0 -319.5 93.5t-106.5 291.5z" />
<glyph unicode="t" horiz-adv-x="493" d="M-10 1012v41h194v331h41v-331h238v-41h-238v-807q0 -104 38 -134t104 -30q72 0 90 6v-41q-14 0 -46 -3t-55 -3q-82 0 -127 44t-45 153v815h-194z" />
<glyph unicode="u" d="M113 354v699h41v-693q0 -170 95 -257t238 -87q182 0 282.5 126t100.5 315v596h41v-1053h-41v260q-35 -127 -133 -206t-250 -79q-168 0 -271 99.5t-103 279.5z" />
<glyph unicode="v" horiz-adv-x="833" d="M-25 1053h50l407 -1012l381 1012h45l-397 -1053h-51z" />
<glyph unicode="w" horiz-adv-x="1402" d="M-16 1053h41l313 -1012l330 1012h63l324 -1012l323 1012h41l-336 -1053h-53l-328 1012l-333 -1012h-58z" />
<glyph unicode="x" horiz-adv-x="833" d="M-31 0l422 545l-383 508h53l355 -478l362 478h49l-385 -508l422 -545h-51l-397 514l-396 -514h-51z" />
<glyph unicode="y" horiz-adv-x="833" d="M-25 1053h45l418 -998l377 998h43l-485 -1268q-37 -96 -99.5 -121.5t-179.5 -25.5v40q117 0 164 23t82 113l76 196z" />
<glyph unicode="z" horiz-adv-x="833" d="M10 0v51l738 961h-682v41h725v-52l-738 -960h770v-41h-813z" />
<glyph unicode="{" horiz-adv-x="681" d="M174 553v41q63 10 105.5 110.5t42.5 231.5v338q0 121 31.5 172t117.5 51h102v-41h-98q-61 0 -87 -47t-26 -172v-336q0 -109 -35.5 -204t-111.5 -128q66 -31 106.5 -125t40.5 -211v-331q0 -133 26 -178.5t87 -45.5h98v-40h-102q-82 0 -115.5 54t-33.5 173v334 q0 137 -30 217t-118 137z" />
<glyph unicode="|" horiz-adv-x="454" d="M207 -35v1532h41v-1532h-41z" />
<glyph unicode="}" horiz-adv-x="681" d="M109 -322h98q61 0 86.5 47.5t25.5 172.5v335q0 109 36 204t112 128q-66 31 -107 125t-41 211v332q0 133 -25.5 178t-86.5 45h-98v41h102q82 0 115.5 -54t33.5 -173v-334q0 -137 30 -217t118 -137v-41q-63 -10 -105.5 -110.5t-42.5 -231.5v-338q0 -121 -31.5 -172 t-117.5 -51h-102v40z" />
<glyph unicode="~" horiz-adv-x="1228" d="M158 432q43 80 101 129t140 49q51 0 109.5 -18.5t147.5 -57t124 -52t70 -13.5q53 0 94 39t86 108l41 -12q-53 -86 -101 -131t-122 -45q-51 0 -111.5 27.5t-87.5 38.5q-82 39 -132 57t-118 18t-112.5 -37.5t-87.5 -111.5z" />
<glyph unicode="&#xa1;" horiz-adv-x="378" d="M170 -362v1099h41v-1099h-41zM170 909v201h41v-201h-41z" />
<glyph unicode="&#xa2;" horiz-adv-x="1138" d="M121 528q0 221 115.5 384t320.5 163v180h41v-180q166 0 278.5 -89t131.5 -253h-41q-23 147 -122.5 224t-246.5 77v-1018h10q150 0 251.5 95.5t117.5 246.5h41q-20 -178 -134 -280.5t-286 -102.5v-223h-41v223q-207 0 -321.5 164t-114.5 389zM162 528q0 -207 102.5 -359.5 t292.5 -152.5v1018q-188 0 -291.5 -151.5t-103.5 -354.5z" />
<glyph unicode="&#xa3;" horiz-adv-x="1138" d="M80 6q106 90 174 198.5t68 223.5q0 168 -66 279h-156v41h136q-45 88 -94.5 189t-49.5 179q0 182 135 281.5t328 99.5q219 0 347 -117.5t128 -324.5l-4 -72h-41q2 16 2 33.5v27.5q0 199 -116.5 305.5t-315.5 106.5q-178 0 -300 -84t-122 -256q0 -92 56.5 -197.5 t93.5 -170.5h323v-41h-305q31 -55 46 -130t15 -149q0 -115 -52 -211t-150 -180l4 -4q45 35 96 55.5t113 20.5q55 0 116.5 -20.5t114.5 -41t95 -31t73 -10.5q90 0 155.5 40t157.5 130l27 -29q-86 -98 -166 -140t-174 -42q-57 0 -105.5 15.5t-99.5 35.5q-115 39 -139.5 45.5 t-54.5 6.5q-72 0 -132.5 -26t-123.5 -77z" />
<glyph unicode="&#xa4;" horiz-adv-x="1138" d="M61 696q0 197 136 344l-117 117l29 29l116 -117q147 135 344 135q199 0 344 -135l117 117l29 -29l-117 -117q135 -145 135 -344q0 -197 -135 -344l117 -116l-29 -29l-117 117q-147 -135 -344 -136q-197 0 -344 136l-116 -117l-29 29l117 116q-135 147 -136 344zM102 696 q0 -193 137.5 -330t329.5 -137q193 0 330 137.5t137 329.5q0 195 -136 331t-331 136q-193 0 -330 -137t-137 -330z" />
<glyph unicode="&#xa5;" horiz-adv-x="1138" d="M43 1462h45l479 -784l484 784h45l-486 -796h279v-41h-301v-209h301v-41h-301v-375h-41v375h-301v41h301v209h-301v41h282z" />
<glyph unicode="&#xa6;" horiz-adv-x="454" d="M207 -35v590h41v-590h-41zM207 907v590h41v-590h-41z" />
<glyph unicode="&#xa7;" horiz-adv-x="1138" d="M117 717q0 92 66.5 172t156.5 112q-47 41 -78 94.5t-31 129.5q0 150 103.5 211t220.5 61q160 0 255 -103.5t95 -275.5h-41q0 160 -81 249t-232 89q-104 0 -191.5 -55t-87.5 -180q0 -72 31 -117t77 -79t157.5 -98.5t227.5 -139t186.5 -161.5t70.5 -208q0 -100 -79 -177 t-161 -102q74 -61 97.5 -118.5t23.5 -133.5q0 -135 -98 -204.5t-236 -69.5q-172 0 -265 103.5t-93 293.5h41q0 -166 75.5 -261t241.5 -95q143 0 218 74.5t75 158.5q0 86 -28.5 137.5t-111.5 111t-220 144.5t-217 139t-124 129t-44 169zM158 700q0 -66 40 -134t132 -127.5 t226 -145.5t187 -125q80 18 159 86t79 166q0 104 -66.5 185t-271.5 212q-49 31 -151.5 89.5t-114.5 66.5q-72 -23 -145.5 -91.5t-73.5 -181.5z" />
<glyph unicode="&#xa8;" horiz-adv-x="266" d="M-47 1208v166h41v-166h-41zM272 1208v166h41v-166h-41z" />
<glyph unicode="&#xa9;" horiz-adv-x="1638" d="M53 731q0 319 223.5 542.5t542.5 223.5t542.5 -223t223.5 -543q0 -319 -223 -542.5t-543 -223.5q-319 0 -542.5 223.5t-223.5 542.5zM94 731q0 -301 212 -513t513 -212t513 212t212 513t-212 513t-513 212t-513 -212t-212 -513zM391 719q0 207 119 337t326 130 q150 0 254 -82t124 -227h-40q-18 129 -113.5 198.5t-224.5 69.5q-186 0 -295 -119t-109 -305t110.5 -310t299.5 -124q115 0 208 73.5t124 204.5h40q-33 -143 -133 -231t-239 -88q-203 0 -327 134t-124 339z" />
<glyph unicode="&#xaa;" horiz-adv-x="614" d="M0 924q0 111 69.5 152.5t182.5 41.5h49q129 0 166 22.5t37 69.5q0 88 -47 127t-152 39q-199 0 -221 -172h-41q23 213 262 213q111 0 175.5 -42t64.5 -140v-389q0 -43 41 -43q8 0 28 4v-41q-55 0 -82.5 9t-27.5 54v84l-4 -14q-47 -147 -271 -147q-100 0 -164.5 42 t-64.5 130zM41 924q0 -66 54.5 -98.5t133.5 -32.5q127 0 201 67.5t74 171.5v98q-27 -35 -104.5 -41t-162.5 -14t-140.5 -38.5t-55.5 -112.5z" />
<glyph unicode="&#xab;" horiz-adv-x="720" d="M135 532v33l211 285v-72l-170 -229l170 -230v-71zM326 532v33l211 285v-72l-170 -229l170 -230v-71z" />
<glyph unicode="&#xac;" horiz-adv-x="1228" d="M98 696v41h1032v-547h-40v506h-992z" />
<glyph unicode="&#xad;" horiz-adv-x="681" d="M162 528v41h358v-41h-358z" />
<glyph unicode="&#xae;" horiz-adv-x="1638" d="M53 731q0 319 223.5 542.5t542.5 223.5t542.5 -223t223.5 -543q0 -319 -223 -542.5t-543 -223.5q-319 0 -542.5 223.5t-223.5 542.5zM94 731q0 -301 212 -513t513 -212t513 212t212 513t-212 513t-513 212t-513 -212t-212 -513zM561 276v881h289q291 0 291 -237 q0 -106 -65.5 -168t-164.5 -62l271 -414h-52l-264 410l-63 -2h-201v-408h-41zM602 725h213q121 0 203 39t82 156q0 111 -71 153.5t-183 42.5h-244v-391z" />
<glyph unicode="&#xb0;" horiz-adv-x="819" d="M117 1124q0 121 84 207t209 86q121 0 206.5 -86t85.5 -207q0 -123 -84.5 -210t-207.5 -87t-208 85t-85 212zM158 1124q0 -109 73.5 -182.5t178.5 -73.5q109 0 180.5 74t71.5 182q0 104 -71.5 178t-180.5 74q-100 0 -176 -75.5t-76 -176.5z" />
<glyph unicode="&#xb1;" horiz-adv-x="1228" d="M98 0v41h1032v-41h-1032zM98 590v41h496v405h41v-405h495v-41h-495v-406h-41v406h-496z" />
<glyph unicode="&#xb2;" horiz-adv-x="681" d="M37 567q0 82 47 140.5t225 175t225.5 181t47.5 140.5q0 84 -65.5 128t-172.5 44q-129 0 -189.5 -63.5t-60.5 -184.5h-41q0 143 68.5 216t222.5 73q125 0 202 -52t77 -161q0 -90 -54.5 -162.5t-219.5 -178t-213 -157t-52 -98.5h563v-41h-610z" />
<glyph unicode="&#xb3;" horiz-adv-x="681" d="M23 850h40q0 -125 76 -190.5t213 -65.5q111 0 188.5 54t77.5 151q0 104 -74.5 150t-189.5 46h-49v43h53q104 0 174 41t70 133q0 94 -67.5 129t-178.5 35q-131 0 -198.5 -57t-67.5 -174h-41q0 131 84 201.5t225 70.5q121 0 203 -46t82 -159q0 -84 -59.5 -139t-149.5 -55 q96 -4 160.5 -60.5t64.5 -158.5q0 -111 -90 -178.5t-215 -67.5q-158 0 -244.5 77t-86.5 220z" />
<glyph unicode="&#xb4;" horiz-adv-x="266" d="M20 1202l271 295h59l-299 -295h-31z" />
<glyph unicode="&#xb5;" horiz-adv-x="1138" d="M170 -362v1415h39v-693q0 -170 95 -257t239 -87q182 0 282.5 126t100.5 315v596h41v-1053h-41v260q-33 -127 -133.5 -206t-249.5 -79q-109 0 -197 46.5t-131 144.5l-4 -528h-41z" />
<glyph unicode="&#xb6;" horiz-adv-x="1228" d="M135 1061q0 190 120 295.5t337 105.5h414v-1749h-41v1708h-334v-1708h-41v959q-199 0 -327 113.5t-128 275.5z" />
<glyph unicode="&#xb8;" horiz-adv-x="266" d="M-51 -340l18 39q59 -20 89 -26.5t61 -6.5q66 0 112.5 24.5t46.5 84.5q0 37 -37.5 59.5t-74.5 22.5q-66 0 -111 -27l-30 20l116 150h41l-84 -115q18 4 33.5 8.5t34.5 4.5q68 0 110.5 -30t42.5 -93q0 -84 -55 -117t-145 -33q-47 0 -98.5 14.5t-69.5 20.5z" />
<glyph unicode="&#xb9;" horiz-adv-x="681" d="M127 1208v39q82 27 130 58.5t110 97.5h45v-836h-41v789q-37 -49 -105.5 -88t-138.5 -60z" />
<glyph unicode="&#xba;" horiz-adv-x="614" d="M0 1087q0 139 82 234.5t227 95.5q143 0 225 -96t82 -234q0 -139 -81.5 -237t-227.5 -98q-141 0 -224 98t-83 237zM41 1087q0 -119 72.5 -206.5t195.5 -87.5q121 0 193.5 88t72.5 206q0 115 -72.5 202t-193.5 87q-123 0 -195.5 -86t-72.5 -203z" />
<glyph unicode="&#xbb;" horiz-adv-x="720" d="M184 248v71l170 230l-170 229v72l211 -285v-33zM375 248v71l170 230l-170 229v72l211 -285v-33z" />
<glyph unicode="&#xbc;" horiz-adv-x="1708" d="M209 1208v39q82 27 130 58.5t110 97.5h45v-836h-41v789q-37 -49 -105.5 -88t-138.5 -60zM295 -70l975 1532h47l-975 -1532h-47zM848 209v51l442 576h51v-586h156v-41h-156v-209h-41v209h-452zM891 250h409v526h-4z" />
<glyph unicode="&#xbd;" horiz-adv-x="1708" d="M133 1208v39q82 27 130 58.5t110 97.5h45v-836h-41v789q-37 -49 -105.5 -88t-138.5 -60zM199 -70l975 1532h47l-975 -1532h-47zM967 0q0 82 47 140.5t225 175t225 181t47 140.5q0 84 -65.5 128t-171.5 44q-129 0 -189.5 -63.5t-60.5 -184.5h-41q0 143 68.5 216t222.5 73 q125 0 201.5 -52.5t76.5 -160.5q0 -90 -54 -163t-219 -178.5t-213 -156.5t-52 -98h563v-41h-610z" />
<glyph unicode="&#xbe;" horiz-adv-x="1708" d="M113 850h41q0 -125 75.5 -190.5t212.5 -65.5q111 0 189 54t78 151q0 104 -76 151t-189 47l-49 -2v43h54q104 0 173.5 41t69.5 133q0 94 -67.5 129t-178.5 35q-131 0 -198.5 -57t-67.5 -174h-41q0 131 84 201.5t226 70.5q121 0 202.5 -46t81.5 -159q0 -84 -59.5 -139 t-149.5 -55q96 -4 161 -60.5t65 -158.5q0 -111 -90.5 -178.5t-215.5 -67.5q-158 0 -244.5 77t-86.5 220zM406 -70l974 1532h47l-974 -1532h-47zM946 209v51l443 576h51v-586h155v-41h-155v-209h-41v209h-453zM989 250h410v526h-4z" />
<glyph unicode="&#xbf;" d="M104 -47q0 133 54.5 211t144.5 155q117 113 160 196t43 222h41q0 -139 -41 -229t-129 -175t-144 -138q-88 -111 -88 -242q0 -141 100.5 -220t262.5 -79q199 0 301 120t102 326h41q0 -221 -115.5 -354t-328.5 -133q-176 0 -290 90t-114 250zM508 909v201h41v-201h-41z" />
<glyph unicode="&#xc0;" horiz-adv-x="1177" d="M-25 0l594 1462h54l577 -1462h-45l-192 481h-746l-194 -481h-48zM233 522h713l-348 899zM379 1862h60l256 -295h-31z" />
<glyph unicode="&#xc1;" horiz-adv-x="1177" d="M-25 0l594 1462h54l577 -1462h-45l-192 481h-746l-194 -481h-48zM233 522h713l-348 899zM477 1567l271 295h59l-299 -295h-31z" />
<glyph unicode="&#xc2;" horiz-adv-x="1177" d="M-25 0l594 1462h54l577 -1462h-45l-192 481h-746l-194 -481h-48zM233 522h713l-348 899zM342 1577l232 285h30l234 -285h-41l-211 252l-203 -252h-41z" />
<glyph unicode="&#xc3;" horiz-adv-x="1177" d="M-25 0l594 1462h54l577 -1462h-45l-192 481h-746l-194 -481h-48zM233 522h713l-348 899zM320 1598q0 57 44 109.5t95 52.5q43 0 138.5 -59.5t121.5 -59.5q45 0 72.5 33.5t27.5 79.5h41q0 -63 -36.5 -108.5t-104.5 -45.5q-49 0 -136 59.5t-124 59.5q-39 0 -68.5 -40 t-29.5 -81h-41z" />
<glyph unicode="&#xc4;" horiz-adv-x="1177" d="M-25 0l594 1462h54l577 -1462h-45l-192 481h-746l-194 -481h-48zM233 522h713l-348 899zM410 1573v166h41v-166h-41zM729 1573v166h41v-166h-41z" />
<glyph unicode="&#xc5;" horiz-adv-x="1177" d="M-25 0l594 1462h54l577 -1462h-45l-192 481h-746l-194 -481h-48zM233 522h713l-348 899zM410 1687q0 74 53 127.5t127 53.5t127 -53.5t53 -127.5t-53 -127t-127 -53t-127 53.5t-53 126.5zM451 1687q0 -57 41 -98t98 -41t98 41t41 98t-41 98.5t-98 41.5t-98 -41t-41 -99z " />
<glyph unicode="&#xc6;" horiz-adv-x="1744" d="M-25 0l775 1462h960v-41h-803v-639h738v-41h-738v-700h803v-41h-844v561h-549l-297 -561h-45zM338 602h528v823h-96z" />
<glyph unicode="&#xc7;" horiz-adv-x="1402" d="M51 719q0 309 171 543.5t517 234.5q264 0 424 -155.5t160 -317.5h-41q-14 170 -163.5 301t-379.5 131q-328 0 -487.5 -230.5t-159.5 -506.5q0 -295 168 -504t453 -209q254 0 410.5 156.5t191.5 410.5h41q-39 -274 -204 -441t-429 -167l-59 -80q18 4 33.5 8.5t33.5 4.5 q68 0 111 -30t43 -93q0 -84 -55.5 -117t-145.5 -33q-47 0 -98 14.5t-70 20.5l19 39q59 -20 88.5 -26.5t60.5 -6.5q66 0 113 24.5t47 84.5q0 37 -38 59.5t-75 22.5q-66 0 -110 -27l-31 20l90 117q-279 0 -454 213t-175 539z" />
<glyph unicode="&#xc8;" horiz-adv-x="1099" d="M111 0v1462h970v-41h-929v-639h874v-41h-874v-700h938v-41h-979zM340 1862h60l256 -295h-31z" />
<glyph unicode="&#xc9;" horiz-adv-x="1099" d="M111 0v1462h970v-41h-929v-639h874v-41h-874v-700h938v-41h-979zM438 1567l271 295h59l-299 -295h-31z" />
<glyph unicode="&#xca;" horiz-adv-x="1099" d="M111 0v1462h970v-41h-929v-639h874v-41h-874v-700h938v-41h-979zM303 1577l232 285h30l234 -285h-41l-211 252l-203 -252h-41z" />
<glyph unicode="&#xcb;" horiz-adv-x="1099" d="M111 0v1462h970v-41h-929v-639h874v-41h-874v-700h938v-41h-979zM371 1573v166h41v-166h-41zM690 1573v166h41v-166h-41z" />
<glyph unicode="&#xcc;" horiz-adv-x="262" d="M-80 1862h60l256 -295h-31zM111 0v1462h41v-1462h-41z" />
<glyph unicode="&#xcd;" horiz-adv-x="262" d="M18 1567l271 295h59l-299 -295h-31zM111 0v1462h41v-1462h-41z" />
<glyph unicode="&#xce;" horiz-adv-x="262" d="M-117 1577l232 285h30l234 -285h-41l-211 252l-203 -252h-41zM111 0v1462h41v-1462h-41z" />
<glyph unicode="&#xcf;" horiz-adv-x="262" d="M-49 1573v166h41v-166h-41zM111 0v1462h41v-1462h-41zM270 1573v166h41v-166h-41z" />
<glyph unicode="&#xd0;" horiz-adv-x="1327" d="M-20 741v41h131v680h512q258 0 440 -169t182 -562q0 -367 -197.5 -549t-488.5 -182h-448v741h-131zM152 41h417q276 0 455.5 176t179.5 514q0 375 -169 532.5t-423 157.5h-460v-639h608v-41h-608v-700z" />
<glyph unicode="&#xd1;" horiz-adv-x="1327" d="M111 0v1462h61l999 -1411l5 1411h41v-1462h-62l-999 1411l-4 -1411h-41zM393 1598q0 57 44 109.5t95 52.5q43 0 138.5 -59.5t121.5 -59.5q45 0 72.5 33.5t27.5 79.5h41q0 -63 -36.5 -108.5t-104.5 -45.5q-49 0 -136 59.5t-124 59.5q-39 0 -68.5 -40t-29.5 -81h-41z" />
<glyph unicode="&#xd2;" horiz-adv-x="1476" d="M66 731q0 328 178 547t495 219t495.5 -219t178.5 -547t-178 -547t-496 -219q-317 0 -495 219t-178 547zM106 731q0 -322 171 -523.5t462 -201.5t462 202t171 523q0 322 -171 523.5t-462 201.5t-462 -201.5t-171 -523.5zM528 1862h60l256 -295h-31z" />
<glyph unicode="&#xd3;" horiz-adv-x="1476" d="M66 731q0 328 178 547t495 219t495.5 -219t178.5 -547t-178 -547t-496 -219q-317 0 -495 219t-178 547zM106 731q0 -322 171 -523.5t462 -201.5t462 202t171 523q0 322 -171 523.5t-462 201.5t-462 -201.5t-171 -523.5zM626 1567l271 295h59l-299 -295h-31z" />
<glyph unicode="&#xd4;" horiz-adv-x="1476" d="M66 731q0 328 178 547t495 219t495.5 -219t178.5 -547t-178 -547t-496 -219q-317 0 -495 219t-178 547zM106 731q0 -322 171 -523.5t462 -201.5t462 202t171 523q0 322 -171 523.5t-462 201.5t-462 -201.5t-171 -523.5zM491 1577l232 285h30l234 -285h-41l-211 252 l-203 -252h-41z" />
<glyph unicode="&#xd5;" horiz-adv-x="1476" d="M66 731q0 328 178 547t495 219t495.5 -219t178.5 -547t-178 -547t-496 -219q-317 0 -495 219t-178 547zM106 731q0 -322 171 -523.5t462 -201.5t462 202t171 523q0 322 -171 523.5t-462 201.5t-462 -201.5t-171 -523.5zM469 1598q0 57 44 109.5t95 52.5q43 0 138.5 -59.5 t121.5 -59.5q45 0 72.5 33.5t27.5 79.5h41q0 -63 -36.5 -108.5t-104.5 -45.5q-49 0 -136 59.5t-124 59.5q-39 0 -68.5 -40t-29.5 -81h-41z" />
<glyph unicode="&#xd6;" horiz-adv-x="1476" d="M66 731q0 328 178 547t495 219t495.5 -219t178.5 -547t-178 -547t-496 -219q-317 0 -495 219t-178 547zM106 731q0 -322 171 -523.5t462 -201.5t462 202t171 523q0 322 -171 523.5t-462 201.5t-462 -201.5t-171 -523.5zM559 1573v166h41v-166h-41zM878 1573v166h41v-166 h-41z" />
<glyph unicode="&#xd7;" horiz-adv-x="1228" d="M197 129l389 389l-389 389l28 27l387 -391l392 391l28 -27l-391 -389l391 -389l-28 -29l-392 392l-387 -392z" />
<glyph unicode="&#xd8;" horiz-adv-x="1476" d="M66 731q0 328 178 547t495 219q154 0 272.5 -52t207.5 -151l120 133l31 -24l-125 -139q168 -209 168 -533q0 -328 -178 -547t-496 -219q-152 0 -273.5 53.5t-207.5 153.5l-145 -162l-31 25l149 166q-80 100 -122.5 238.5t-42.5 291.5zM106 731q0 -150 39 -275.5 t115 -222.5l930 1031q-82 92 -196.5 142t-254.5 50q-291 0 -462 -201.5t-171 -523.5zM287 203q82 -96 194.5 -146.5t257.5 -50.5q291 0 462 202t171 523q0 305 -155 500z" />
<glyph unicode="&#xd9;" horiz-adv-x="1294" d="M111 545v917h41v-917q0 -264 122.5 -401.5t372.5 -137.5t373 136.5t123 402.5v917h41v-917q0 -287 -138.5 -433.5t-398.5 -146.5q-537 0 -536 580zM436 1862h60l256 -295h-31z" />
<glyph unicode="&#xda;" horiz-adv-x="1294" d="M111 545v917h41v-917q0 -264 122.5 -401.5t372.5 -137.5t373 136.5t123 402.5v917h41v-917q0 -287 -138.5 -433.5t-398.5 -146.5q-537 0 -536 580zM534 1567l271 295h59l-299 -295h-31z" />
<glyph unicode="&#xdb;" horiz-adv-x="1294" d="M111 545v917h41v-917q0 -264 122.5 -401.5t372.5 -137.5t373 136.5t123 402.5v917h41v-917q0 -287 -138.5 -433.5t-398.5 -146.5q-537 0 -536 580zM399 1577l232 285h30l234 -285h-41l-211 252l-203 -252h-41z" />
<glyph unicode="&#xdc;" horiz-adv-x="1294" d="M111 545v917h41v-917q0 -264 122.5 -401.5t372.5 -137.5t373 136.5t123 402.5v917h41v-917q0 -287 -138.5 -433.5t-398.5 -146.5q-537 0 -536 580zM467 1573v166h41v-166h-41zM786 1573v166h41v-166h-41z" />
<glyph unicode="&#xdd;" horiz-adv-x="1101" d="M-61 1462h51l561 -803l563 803h49l-592 -846v-616h-41v616zM438 1612l271 295h59l-299 -295h-31z" />
<glyph unicode="&#xde;" horiz-adv-x="1175" d="M111 0v1462h41v-254h550q211 0 328 -102t117 -297q0 -188 -128 -292.5t-337 -104.5h-530v-412h-41zM152 453h550q176 0 290 95t114 261q0 358 -404 358h-550v-714z" />
<glyph unicode="&#xdf;" horiz-adv-x="985" d="M113 0v1139q0 180 104.5 264t255.5 84q156 0 266.5 -91t110.5 -247q0 -131 -65.5 -220t-194.5 -110q170 -18 253 -119.5t83 -269.5q0 -209 -118 -319.5t-394 -110.5v41q231 0 351 84t120 305q0 209 -121 286t-350 77v41q178 0 286.5 72.5t108.5 242.5q0 137 -95.5 217 t-240.5 80q-123 0 -221 -63.5t-98 -249.5v-1133h-41z" />
<glyph unicode="&#xe0;" horiz-adv-x="985" d="M45 260q0 176 102.5 245.5t260.5 69.5q240 0 325.5 29t85.5 141q0 129 -59.5 210t-247.5 81q-166 0 -263 -81t-97 -228h-41q0 156 105.5 253t295.5 97q156 0 252 -69.5t96 -231.5v-670q0 -39 23.5 -54t60.5 -15h25q16 4 24 4v-41h-30q-88 0 -116 25.5t-28 76.5v138 q-37 -109 -151.5 -187t-270.5 -78q-160 0 -256 74t-96 211zM86 260q0 -102 73.5 -173t233.5 -71q197 0 311.5 121t114.5 287v194q-31 -41 -116 -62t-295 -21q-147 0 -234.5 -58.5t-87.5 -216.5zM282 1452h60l256 -295h-31z" />
<glyph unicode="&#xe1;" horiz-adv-x="985" d="M45 260q0 176 102.5 245.5t260.5 69.5q240 0 325.5 29t85.5 141q0 129 -59.5 210t-247.5 81q-166 0 -263 -81t-97 -228h-41q0 156 105.5 253t295.5 97q156 0 252 -69.5t96 -231.5v-670q0 -39 23.5 -54t60.5 -15h25q16 4 24 4v-41h-30q-88 0 -116 25.5t-28 76.5v138 q-37 -109 -151.5 -187t-270.5 -78q-160 0 -256 74t-96 211zM86 260q0 -102 73.5 -173t233.5 -71q197 0 311.5 121t114.5 287v194q-31 -41 -116 -62t-295 -21q-147 0 -234.5 -58.5t-87.5 -216.5zM380 1157l271 295h59l-299 -295h-31z" />
<glyph unicode="&#xe2;" horiz-adv-x="985" d="M45 260q0 176 102.5 245.5t260.5 69.5q240 0 325.5 29t85.5 141q0 129 -59.5 210t-247.5 81q-166 0 -263 -81t-97 -228h-41q0 156 105.5 253t295.5 97q156 0 252 -69.5t96 -231.5v-670q0 -39 23.5 -54t60.5 -15h25q16 4 24 4v-41h-30q-88 0 -116 25.5t-28 76.5v138 q-37 -109 -151.5 -187t-270.5 -78q-160 0 -256 74t-96 211zM86 260q0 -102 73.5 -173t233.5 -71q197 0 311.5 121t114.5 287v194q-31 -41 -116 -62t-295 -21q-147 0 -234.5 -58.5t-87.5 -216.5zM245 1167l232 285h30l234 -285h-41l-211 252l-203 -252h-41z" />
<glyph unicode="&#xe3;" horiz-adv-x="985" d="M45 260q0 176 102.5 245.5t260.5 69.5q240 0 325.5 29t85.5 141q0 129 -59.5 210t-247.5 81q-166 0 -263 -81t-97 -228h-41q0 156 105.5 253t295.5 97q156 0 252 -69.5t96 -231.5v-670q0 -39 23.5 -54t60.5 -15h25q16 4 24 4v-41h-30q-88 0 -116 25.5t-28 76.5v138 q-37 -109 -151.5 -187t-270.5 -78q-160 0 -256 74t-96 211zM86 260q0 -102 73.5 -173t233.5 -71q197 0 311.5 121t114.5 287v194q-31 -41 -116 -62t-295 -21q-147 0 -234.5 -58.5t-87.5 -216.5zM223 1188q0 57 44 109.5t95 52.5q43 0 138.5 -59.5t121.5 -59.5 q45 0 72.5 33.5t27.5 79.5h41q0 -63 -36.5 -108.5t-104.5 -45.5q-49 0 -136 59.5t-124 59.5q-39 0 -68.5 -40t-29.5 -81h-41z" />
<glyph unicode="&#xe4;" horiz-adv-x="985" d="M45 260q0 176 102.5 245.5t260.5 69.5q240 0 325.5 29t85.5 141q0 129 -59.5 210t-247.5 81q-166 0 -263 -81t-97 -228h-41q0 156 105.5 253t295.5 97q156 0 252 -69.5t96 -231.5v-670q0 -39 23.5 -54t60.5 -15h25q16 4 24 4v-41h-30q-88 0 -116 25.5t-28 76.5v138 q-37 -109 -151.5 -187t-270.5 -78q-160 0 -256 74t-96 211zM86 260q0 -102 73.5 -173t233.5 -71q197 0 311.5 121t114.5 287v194q-31 -41 -116 -62t-295 -21q-147 0 -234.5 -58.5t-87.5 -216.5zM313 1163v166h41v-166h-41zM632 1163v166h41v-166h-41z" />
<glyph unicode="&#xe5;" horiz-adv-x="985" d="M45 260q0 176 102.5 245.5t260.5 69.5q240 0 325.5 29t85.5 141q0 129 -59.5 210t-247.5 81q-166 0 -263 -81t-97 -228h-41q0 156 105.5 253t295.5 97q156 0 252 -69.5t96 -231.5v-670q0 -39 23.5 -54t60.5 -15h25q16 4 24 4v-41h-30q-88 0 -116 25.5t-28 76.5v138 q-37 -109 -151.5 -187t-270.5 -78q-160 0 -256 74t-96 211zM86 260q0 -102 73.5 -173t233.5 -71q197 0 311.5 121t114.5 287v194q-31 -41 -116 -62t-295 -21q-147 0 -234.5 -58.5t-87.5 -216.5zM313 1380q0 74 53 127.5t127 53.5t127 -53.5t53 -127.5t-53 -127t-127 -53 t-127 53.5t-53 126.5zM354 1380q0 -57 41 -98t98 -41t98 41t41 98t-41 98.5t-98 41.5t-98 -41t-41 -99z" />
<glyph unicode="&#xe6;" horiz-adv-x="1820" d="M66 260q0 176 102 245.5t260 69.5q240 0 326 29t86 141q0 129 -59.5 210t-248.5 81q-166 0 -263 -81t-97 -228h-41q0 156 105.5 253t295.5 97q158 0 253.5 -70.5t95.5 -236.5q47 137 156.5 222t267.5 85q225 0 337.5 -158.5t112.5 -400.5h-874q0 -225 103 -363.5 t316 -138.5q162 0 275 91.5t133 257.5h41q-16 -174 -139 -282t-310 -108q-170 0 -280.5 88.5t-153.5 253.5q-33 -158 -156.5 -250t-291.5 -92q-160 0 -256 74t-96 211zM106 260q0 -102 74 -173t234 -71q197 0 311.5 121t114.5 287v194q-31 -41 -116 -62t-296 -21 q-147 0 -234.5 -58.5t-87.5 -216.5zM881 559h833q0 207 -105.5 342t-303.5 135q-195 0 -309.5 -129t-114.5 -348z" />
<glyph unicode="&#xe7;" d="M63 504q0 246 125 409.5t367 163.5q154 0 266.5 -91t130.5 -253h-41q-23 147 -122 225t-234 78q-231 0 -341 -158.5t-110 -373.5q0 -205 113 -346.5t313 -141.5q160 0 275 94.5t115 247.5h41q-16 -174 -130 -277.5t-288 -103.5l-68 -92q18 4 33.5 8.5t34.5 4.5 q68 0 110.5 -30t42.5 -93q0 -84 -55 -117t-145 -33q-47 0 -98.5 14.5t-69.5 20.5l18 39q59 -20 89 -26.5t61 -6.5q66 0 112.5 24.5t46.5 84.5q0 37 -37.5 59.5t-74.5 22.5q-66 0 -111 -27l-31 20l101 130q-201 0 -320 152.5t-119 371.5z" />
<glyph unicode="&#xe8;" d="M51 526q0 252 135.5 401.5t325.5 149.5q229 0 345 -160.5t116 -398.5h-881q0 -229 100.5 -365.5t315.5 -136.5q166 0 275.5 90.5t136.5 258.5h41q-20 -178 -144.5 -284t-304.5 -106q-233 0 -347 150.5t-114 400.5zM92 559h840q0 207 -108.5 342t-307.5 135 q-176 0 -300 -131t-124 -346zM301 1452h60l256 -295h-31z" />
<glyph unicode="&#xe9;" d="M51 526q0 252 135.5 401.5t325.5 149.5q229 0 345 -160.5t116 -398.5h-881q0 -229 100.5 -365.5t315.5 -136.5q166 0 275.5 90.5t136.5 258.5h41q-20 -178 -144.5 -284t-304.5 -106q-233 0 -347 150.5t-114 400.5zM92 559h840q0 207 -108.5 342t-307.5 135 q-176 0 -300 -131t-124 -346zM399 1157l271 295h59l-299 -295h-31z" />
<glyph unicode="&#xea;" d="M51 526q0 252 135.5 401.5t325.5 149.5q229 0 345 -160.5t116 -398.5h-881q0 -229 100.5 -365.5t315.5 -136.5q166 0 275.5 90.5t136.5 258.5h41q-20 -178 -144.5 -284t-304.5 -106q-233 0 -347 150.5t-114 400.5zM92 559h840q0 207 -108.5 342t-307.5 135 q-176 0 -300 -131t-124 -346zM264 1167l232 285h30l234 -285h-41l-211 252l-203 -252h-41z" />
<glyph unicode="&#xeb;" d="M51 526q0 252 135.5 401.5t325.5 149.5q229 0 345 -160.5t116 -398.5h-881q0 -229 100.5 -365.5t315.5 -136.5q166 0 275.5 90.5t136.5 258.5h41q-20 -178 -144.5 -284t-304.5 -106q-233 0 -347 150.5t-114 400.5zM92 559h840q0 207 -108.5 342t-307.5 135 q-176 0 -300 -131t-124 -346zM332 1163v166h41v-166h-41zM651 1163v166h41v-166h-41z" />
<glyph unicode="&#xec;" horiz-adv-x="266" d="M-78 1452h60l256 -295h-31zM113 0v1053h41v-1053h-41z" />
<glyph unicode="&#xed;" horiz-adv-x="266" d="M20 1157l271 295h59l-299 -295h-31zM113 0v1053h41v-1053h-41z" />
<glyph unicode="&#xee;" horiz-adv-x="266" d="M-115 1167l232 285h30l234 -285h-41l-211 252l-203 -252h-41zM113 0v1053h41v-1053h-41z" />
<glyph unicode="&#xef;" horiz-adv-x="266" d="M-47 1163v166h41v-166h-41zM113 0v1053h41v-1053h-41zM272 1163v166h41v-166h-41z" />
<glyph unicode="&#xf1;" d="M113 0v1053h41v-260q35 127 133 205.5t250 78.5q168 0 271 -99t103 -280v-698h-41v692q0 170 -95 257t-238 87q-182 0 -282.5 -126t-100.5 -314v-596h-41zM242 1188q0 57 44 109.5t95 52.5q43 0 138.5 -59.5t121.5 -59.5q45 0 72.5 33.5t27.5 79.5h41q0 -63 -36.5 -108.5 t-104.5 -45.5q-49 0 -136 59.5t-124 59.5q-39 0 -68.5 -40t-29.5 -81h-41z" />
<glyph unicode="&#xf2;" horiz-adv-x="1062" d="M57 526q0 229 126 390t349 161q221 0 347.5 -160.5t126.5 -390.5q0 -229 -127 -390t-349 -161q-221 0 -347 160t-126 391zM98 526q0 -211 115.5 -360.5t318.5 -149.5t318 148.5t115 361.5q0 209 -116 359.5t-317 150.5q-203 0 -318.5 -149.5t-115.5 -360.5zM321 1452h60 l256 -295h-31z" />
<glyph unicode="&#xf3;" horiz-adv-x="1062" d="M57 526q0 229 126 390t349 161q221 0 347.5 -160.5t126.5 -390.5q0 -229 -127 -390t-349 -161q-221 0 -347 160t-126 391zM98 526q0 -211 115.5 -360.5t318.5 -149.5t318 148.5t115 361.5q0 209 -116 359.5t-317 150.5q-203 0 -318.5 -149.5t-115.5 -360.5zM419 1157 l271 295h59l-299 -295h-31z" />
<glyph unicode="&#xf4;" horiz-adv-x="1062" d="M57 526q0 229 126 390t349 161q221 0 347.5 -160.5t126.5 -390.5q0 -229 -127 -390t-349 -161q-221 0 -347 160t-126 391zM98 526q0 -211 115.5 -360.5t318.5 -149.5t318 148.5t115 361.5q0 209 -116 359.5t-317 150.5q-203 0 -318.5 -149.5t-115.5 -360.5zM284 1167 l232 285h30l234 -285h-41l-211 252l-203 -252h-41z" />
<glyph unicode="&#xf5;" horiz-adv-x="1062" d="M57 526q0 229 126 390t349 161q221 0 347.5 -160.5t126.5 -390.5q0 -229 -127 -390t-349 -161q-221 0 -347 160t-126 391zM98 526q0 -211 115.5 -360.5t318.5 -149.5t318 148.5t115 361.5q0 209 -116 359.5t-317 150.5q-203 0 -318.5 -149.5t-115.5 -360.5zM262 1188 q0 57 44 109.5t95 52.5q43 0 138.5 -59.5t121.5 -59.5q45 0 72.5 33.5t27.5 79.5h41q0 -63 -36.5 -108.5t-104.5 -45.5q-49 0 -136 59.5t-124 59.5q-39 0 -68.5 -40t-29.5 -81h-41z" />
<glyph unicode="&#xf6;" horiz-adv-x="1062" d="M57 526q0 229 126 390t349 161q221 0 347.5 -160.5t126.5 -390.5q0 -229 -127 -390t-349 -161q-221 0 -347 160t-126 391zM98 526q0 -211 115.5 -360.5t318.5 -149.5t318 148.5t115 361.5q0 209 -116 359.5t-317 150.5q-203 0 -318.5 -149.5t-115.5 -360.5zM352 1163v166 h41v-166h-41zM671 1163v166h41v-166h-41z" />
<glyph unicode="&#xf7;" horiz-adv-x="1228" d="M98 498v41h1032v-41h-1032zM530 84q0 35 25 59.5t59 24.5q35 0 59.5 -24.5t24.5 -59.5q0 -39 -19.5 -61.5t-64.5 -22.5q-41 0 -62.5 23.5t-21.5 60.5zM530 952q0 35 25 59.5t59 24.5q35 0 59.5 -24.5t24.5 -59.5q0 -39 -19.5 -61.5t-64.5 -22.5q-41 0 -62.5 23.5 t-21.5 60.5z" />
<glyph unicode="&#xf8;" horiz-adv-x="1062" d="M37 45l123 127q-49 70 -76 163t-27 191q0 229 126 390t349 161q109 0 194 -40t148 -117l93 96l28 -29l-96 -100q106 -147 107 -361q0 -229 -127 -390t-349 -161q-111 0 -197.5 42t-150.5 120l-116 -121zM98 526q0 -186 90 -323l656 686q-53 70 -133 108.5t-179 38.5 q-203 0 -318.5 -149.5t-115.5 -360.5zM213 170q55 -74 135 -114t184 -40q203 0 318 148.5t115 361.5q0 90 -25 175t-72 155z" />
<glyph unicode="&#xf9;" d="M113 354v699h41v-693q0 -170 95 -257t238 -87q182 0 282.5 126t100.5 315v596h41v-1053h-41v260q-35 -127 -133 -206t-250 -79q-168 0 -271 99.5t-103 279.5zM301 1452h60l256 -295h-31z" />
<glyph unicode="&#xfa;" d="M113 354v699h41v-693q0 -170 95 -257t238 -87q182 0 282.5 126t100.5 315v596h41v-1053h-41v260q-35 -127 -133 -206t-250 -79q-168 0 -271 99.5t-103 279.5zM399 1157l271 295h59l-299 -295h-31z" />
<glyph unicode="&#xfb;" d="M113 354v699h41v-693q0 -170 95 -257t238 -87q182 0 282.5 126t100.5 315v596h41v-1053h-41v260q-35 -127 -133 -206t-250 -79q-168 0 -271 99.5t-103 279.5zM264 1167l232 285h30l234 -285h-41l-211 252l-203 -252h-41z" />
<glyph unicode="&#xfc;" d="M113 354v699h41v-693q0 -170 95 -257t238 -87q182 0 282.5 126t100.5 315v596h41v-1053h-41v260q-35 -127 -133 -206t-250 -79q-168 0 -271 99.5t-103 279.5zM332 1163v166h41v-166h-41zM651 1163v166h41v-166h-41z" />
<glyph unicode="&#xfd;" horiz-adv-x="833" d="M-25 1053h45l418 -998l377 998h43l-485 -1268q-37 -96 -99.5 -121.5t-179.5 -25.5v40q117 0 164 23t82 113l76 196zM305 1202l271 295h59l-299 -295h-31z" />
<glyph unicode="&#xfe;" horiz-adv-x="1099" d="M113 -362v1824h41v-704q45 147 151.5 233t274.5 86q213 0 330.5 -151.5t117.5 -397.5q0 -238 -112.5 -395.5t-335.5 -157.5q-158 0 -271.5 87.5t-150.5 232.5l-4 -657h-41zM154 528q0 -242 116.5 -377t309.5 -135q213 0 310 149.5t97 362.5q0 221 -101 364.5t-306 143.5 t-315.5 -145.5t-110.5 -362.5z" />
<glyph unicode="&#xff;" horiz-adv-x="833" d="M-25 1053h45l418 -998l377 998h43l-485 -1268q-37 -96 -99.5 -121.5t-179.5 -25.5v40q117 0 164 23t82 113l76 196zM238 1208v166h41v-166h-41zM557 1208v166h41v-166h-41z" />
<glyph unicode="&#x152;" horiz-adv-x="2086" d="M66 723q0 326 177 550t498 224q129 0 225.5 -38t176.5 -130v133h889v-41h-848v-639h749v-41h-749v-700h848v-41h-889v133q-82 -84 -186.5 -126t-215.5 -42q-319 0 -497 217t-178 541zM106 723q0 -317 171.5 -517t463.5 -200q109 0 213.5 44t188.5 143v1083 q-92 96 -183.5 138t-218.5 42q-291 0 -463 -199.5t-172 -533.5z" />
<glyph unicode="&#x153;" horiz-adv-x="1822" d="M66 526q0 229 105 390t327 161q166 0 275.5 -99t131.5 -261q33 164 135.5 262t282.5 98q213 0 321.5 -151.5t108.5 -376.5v-31h-823q0 -248 96 -375t297 -127q168 0 258 93.5t117 244.5h41q-29 -176 -134.5 -277.5t-281.5 -101.5q-174 0 -280.5 90.5t-131.5 256.5 q-39 -164 -141 -255.5t-272 -91.5q-217 0 -324.5 161t-107.5 390zM106 526q0 -215 96.5 -362.5t295.5 -147.5q209 0 300 142.5t91 367.5q0 221 -93 365.5t-298 144.5q-199 0 -295.5 -147.5t-96.5 -362.5zM930 559h782q0 213 -94 345t-293 132q-201 0 -298 -130t-97 -347z " />
<glyph unicode="&#x178;" horiz-adv-x="1101" d="M-61 1462h51l561 -803l563 803h49l-592 -846v-616h-41v616zM371 1573v166h41v-166h-41zM690 1573v166h41v-166h-41z" />
<glyph unicode="&#x2000;" horiz-adv-x="953" />
<glyph unicode="&#x2001;" horiz-adv-x="1907" />
<glyph unicode="&#x2002;" horiz-adv-x="953" />
<glyph unicode="&#x2003;" horiz-adv-x="1907" />
<glyph unicode="&#x2004;" horiz-adv-x="635" />
<glyph unicode="&#x2005;" horiz-adv-x="476" />
<glyph unicode="&#x2006;" horiz-adv-x="317" />
<glyph unicode="&#x2007;" horiz-adv-x="317" />
<glyph unicode="&#x2008;" horiz-adv-x="238" />
<glyph unicode="&#x2009;" horiz-adv-x="381" />
<glyph unicode="&#x200a;" horiz-adv-x="105" />
<glyph unicode="&#x2010;" horiz-adv-x="681" d="M162 528v41h358v-41h-358z" />
<glyph unicode="&#x2011;" horiz-adv-x="681" d="M162 528v41h358v-41h-358z" />
<glyph unicode="&#x2012;" horiz-adv-x="681" d="M162 528v41h358v-41h-358z" />
<glyph unicode="&#x2013;" d="M0 528v41h1024v-41h-1024z" />
<glyph unicode="&#x2014;" horiz-adv-x="2048" d="M0 528v41h2048v-41h-2048z" />
<glyph unicode="&#x2018;" horiz-adv-x="342" d="M150 1001v242q0 109 17 149t75 70v-41q-51 -33 -52 -178v-242h-40z" />
<glyph unicode="&#x2019;" horiz-adv-x="342" d="M100 1001v41q51 33 52 179v241h41v-241q0 -109 -17.5 -149t-75.5 -71z" />
<glyph unicode="&#x201a;" horiz-adv-x="342" d="M98 -203q51 49 52 203v201h40v-201q0 -98 -19 -153.5t-73 -90.5v41z" />
<glyph unicode="&#x201c;" horiz-adv-x="569" d="M170 1001v242q0 109 17.5 149t74.5 70v-41q-51 -33 -51 -178v-242h-41zM375 1001v242q0 109 17.5 149t74.5 70v-41q-51 -33 -51 -178v-242h-41z" />
<glyph unicode="&#x201d;" horiz-adv-x="569" d="M102 1001v41q51 33 52 179v241h41v-241q0 -109 -17.5 -149t-75.5 -71zM307 1001v41q51 33 51 179v241h41v-241q0 -109 -17 -149t-75 -71z" />
<glyph unicode="&#x201e;" horiz-adv-x="569" d="M102 -203q51 49 52 203v201h41v-201q0 -98 -19.5 -153.5t-73.5 -90.5v41zM307 -203q51 49 51 203v201h41v-201q0 -98 -19.5 -153.5t-72.5 -90.5v41z" />
<glyph unicode="&#x2022;" d="M147 731q0 152 106.5 258.5t258.5 106.5t259.5 -105.5t107.5 -259.5t-106.5 -260t-260.5 -106q-152 0 -258.5 106.5t-106.5 259.5z" />
<glyph unicode="&#x2026;" horiz-adv-x="2048" d="M322 0v201h40v-201h-40zM1004 0v201h40v-201h-40zM1686 0v201h40v-201h-40z" />
<glyph unicode="&#x202f;" horiz-adv-x="381" />
<glyph unicode="&#x2039;" horiz-adv-x="530" d="M135 532v33l211 285v-72l-170 -229l170 -230v-71z" />
<glyph unicode="&#x203a;" horiz-adv-x="530" d="M184 248v71l170 230l-170 229v72l211 -285v-33z" />
<glyph unicode="&#x205f;" horiz-adv-x="476" />
<glyph unicode="&#x2122;" horiz-adv-x="2027" d="M168 1421v41h655v-41h-307v-803h-41v803h-307zM1016 618v844h69l332 -786l332 786h70v-844h-41v803l-340 -803h-41l-336 803l-4 -803h-41z" />
<glyph unicode="&#x25fc;" horiz-adv-x="1054" d="M0 0v1055h1055v-1055h-1055z" />
</font>
</defs>
</svg>
